Keep up to date with every new upload!

Join free & follow Mixing.DJ LiveSets
Share
Miguel Campbell - Essential Mix (BBC, Radio1) - 25-08-2012

Miguel Campbell - Essential Mix (BBC, Radio1) - 25-08-2012

Playing tracks by

Inland Knights, Pillowtalk, Fred Falke, BotOx vs Showgirls, Miguel Campbell and more.

Miguel Campbell - Essential Mix (BBC, Radio1) - 25-08-2012
Live Sets, DJ Mixes:
http://mixing.dj

Comments

Darren Gilly Guildford

I love this bloke, everything he does is a stomper.. Loving funky disco house with vocals thrown in..

Jessi Anya Boddy

classic mix! so damn good <3

Konstantin Ablov

The Mix is great, energetic and strong. The track list is wrong/
PERFORMER "Miguel Campbell"
TITLE "Essential Mix (2012-08-25) [TALiON]"
FILE "01-miguel_campbell_-_essential_mix-sat-08-25-2012-talion.mp3" MP3
TRACK 01 AUDIO
PERFORMER "Essential Mix"
TITLE "Intro"
INDEX 01 00:00:00
TRACK 02 AUDIO
PERFORMER "Onira"
TITLE "Air"
INDEX 01 02:04:70
TRACK 03 AUDIO
PERFORMER "TBoy"
TITLE "Eye Of The Tigar"
INDEX 01 04:49:38
TRACK 04 AUDIO
PERFORMER "Inland Knights"
TITLE "Broken Up"
INDEX 01 12:02:37
TRACK 05 AUDIO
PERFORMER "Totally Enormous Extinct Dinosaurs"
TITLE "Stronger (Miguel Campbell Club Mix)"
INDEX 01 16:25:68
TRACK 06 AUDIO
PERFORMER "PillowTalk"
TITLE "Far From Home"
INDEX 01 20:05:53
TRACK 07 AUDIO
PERFORMER "Maceo Plex"
TITLE "Together"
INDEX 01 26:41:13
TRACK 08 AUDIO
PERFORMER "New Musik"
TITLE "Warp"
INDEX 01 31:11:51
TRACK 09 AUDIO
PERFORMER "Bot'Ox"
TITLE "Grand Central"
INDEX 01 34:52:43
TRACK 10 AUDIO
PERFORMER "Fred Falke"
TITLE "808 PM At The Beach"
INDEX 01 41:31:67
TRACK 11 AUDIO
PERFORMER "Get Famous!"
TITLE "One Sunday"
INDEX 01 47:34:23
TRACK 12 AUDIO
PERFORMER "Miguel Campbell"
TITLE "Rockin' Beats"
INDEX 01 52:12:10
TRACK 13 AUDIO
PERFORMER "Miguel Puente"
TITLE "Oh Baby Oh"
INDEX 01 57:17:49
TRACK 14 AUDIO
PERFORMER "Miguel Campbell"
TITLE "Metro Line"
INDEX 01 63:24:46
TRACK 15 AUDIO
PERFORMER "Miguel Campbell"
TITLE "Metro Line (Get Famous! Sicker Than You Edit)"
INDEX 01 66:50:40
TRACK 16 AUDIO
PERFORMER "Marchand"
TITLE "Starlove"
INDEX 01 70:10:59
TRACK 17 AUDIO
PERFORMER "Matt Hughes"
TITLE "Let's Get Lost In Neon Lights"
INDEX 01 73:56:19
TRACK 18 AUDIO
PERFORMER "Miguel Campbell"
TITLE "Not That Kind Of Girl"
INDEX 01 78:34:67
TRACK 19 AUDIO
PERFORMER "Paul Johnson"
TITLE "Blue Is For The Soul"
INDEX 01 81:32:35
TRACK 20 AUDIO
PERFORMER "Sharam Jey"
TITLE "4 Da Loverz"
INDEX 01 88:50:20
TRACK 21 AUDIO
PERFORMER "Miguel Campbell & Matt Hughes"
TITLE "I Can Fly"
INDEX 01 95:13:29
TRACK 22 AUDIO
PERFORMER "Daft Punk"
TITLE "Fresh"
INDEX 01 100:07:56
TRACK 23 AUDIO
PERFORMER "Miguel Campbell"
TITLE "The Avenger"
INDEX 01 103:48:23
TRACK 24 AUDIO
PERFORMER "MAM"
TITLE "Can't Live Without Music"
INDEX 01 108:05:03
TRACK 25 AUDIO
PERFORMER "Butch feat. Benjamin Franklin"
TITLE "Highbeams (Miguel Campbell Remix)"
INDEX 01 112:34:02
TRACK 26 AUDIO
PERFORMER "Miguel Campbell"
TITLE "Baby I Got It (Laura Riganti Acoustic Version)"
INDEX 01 117:36:28
TRACK 27 AUDIO
PERFORMER "Miguel Campbell"
TITLE "Something Special"
INDEX 01 118:40:05