Keep up to date with every new upload!

Join free & follow Dubwise Garage
Sinead O'Connor with Sly and Robbie special guest Burning Spear NYC 09 december 2005

Sinead O'Connor with Sly and Robbie special guest Burning Spear NYC 09 december 2005

Playing tracks by

Sinead o'connor.

Sinead O'Connor with Sly and Robbie special guest Burning Spear

12/09/2005 Dec 9
Webster Hall , NYC , NY
Taper - Ras G
Transfer - Dr Erik
Backed by Sly and Robbie
Special Guest Burning Spear Congas and Vocals all night

01 - Move out of Babylon
02 - He Prayed
03 - Y Mas Gan
04 - Door Peep
05 - Abendigo
06 - Curly Locks
07 - Jah Prophet Has Arise
08 - Throw Down Your Arms
09 - Vampire
10 - Untold Stories (acoustic)
11 - Rivers of Babylon (acoustic)

Disc 2
01 - War
02 - Downpressor Man
03 - None A Jah Jah Children No Cry
encores:
04 - Throw Away Your Stony Heart (acoustic)
05 - Keep Cool Babylon (acoustic)
06 - Stepping Razor
07 - Creation (acoustic)

Comments

Dj Gregory-G
Dj Gregory-G

great listen never got to see her live

Moped Blutwurst

REM GENRE Reggae
REM DATE 2005
REM COMMENT http://i.mixcloud.com/CB6odD
PERFORMER "Sinéad O'Connor"
TITLE "Live at Webster Hall, NYC, 2005-12-09"
FILE "01 - Live in NYC, 2005-12-09 (feat. Sly and Robbie, Burning Spear).mp3" WAVE
TRACK 01 AUDIO
TITLE "Move Out of Babylon"
REM REPLAYGAIN_TRACK_GAIN -0.20 dB
REM REPLAYGAIN_TRACK_PEAK 0.998956
INDEX 01 00:00:00
TRACK 02 AUDIO
TITLE "He Prayed"
REM REPLAYGAIN_TRACK_GAIN +0.38 dB
REM REPLAYGAIN_TRACK_PEAK 0.977833
INDEX 01 06:07:00
TRACK 03 AUDIO
TITLE "Y Mas Gan"
REM REPLAYGAIN_TRACK_GAIN -0.39 dB
REM REPLAYGAIN_TRACK_PEAK 0.989453
INDEX 01 11:45:00
TRACK 04 AUDIO
TITLE "Door Peep"
REM REPLAYGAIN_TRACK_GAIN -1.26 dB
REM REPLAYGAIN_TRACK_PEAK 1.002997
INDEX 01 15:46:00
TRACK 05 AUDIO
TITLE "Abendigo"
REM REPLAYGAIN_TRACK_GAIN +0.56 dB
REM REPLAYGAIN_TRACK_PEAK 1.007787
INDEX 01 24:17:00
TRACK 06 AUDIO
TITLE "Curly Locks"
REM REPLAYGAIN_TRACK_GAIN +8.08 dB
REM REPLAYGAIN_TRACK_PEAK 0.697989
INDEX 01 27:59:00
TRACK 07 AUDIO
TITLE "Jah Prophet Has Arise"
REM REPLAYGAIN_TRACK_GAIN +0.56 dB
REM REPLAYGAIN_TRACK_PEAK 0.991506
INDEX 01 33:39:00
TRACK 08 AUDIO
TITLE "Throw Down Your Arms"
REM REPLAYGAIN_TRACK_GAIN -0.44 dB
REM REPLAYGAIN_TRACK_PEAK 0.841426
INDEX 01 38:33:00
TRACK 09 AUDIO
TITLE "Vampire"
REM REPLAYGAIN_TRACK_GAIN -2.91 dB
REM REPLAYGAIN_TRACK_PEAK 1.018745
INDEX 01 43:28:00
TRACK 10 AUDIO
TITLE "Untold Stories (Acoustic)"
REM REPLAYGAIN_TRACK_GAIN +8.10 dB
REM REPLAYGAIN_TRACK_PEAK 0.974114
INDEX 01 55:01:00
TRACK 11 AUDIO
TITLE "Rivers of Babylon (Acoustic)"
REM REPLAYGAIN_TRACK_GAIN +10.65 dB
REM REPLAYGAIN_TRACK_PEAK 1.000928
INDEX 01 60:14:00
TRACK 12 AUDIO
TITLE "War"
REM REPLAYGAIN_TRACK_GAIN +1.75 dB
REM REPLAYGAIN_TRACK_PEAK 1.006630
INDEX 01 64:20:00
TRACK 13 AUDIO
TITLE "Downpressor Man"
REM REPLAYGAIN_TRACK_GAIN +2.26 dB
REM REPLAYGAIN_TRACK_PEAK 0.978665
INDEX 01 68:47:00
TRACK 14 AUDIO
TITLE "None A Jah Jah Children No Cry"
REM REPLAYGAIN_TRACK_GAIN +0.24 dB
REM REPLAYGAIN_TRACK_PEAK 1.009721
INDEX 01 77:38:00
TRACK 15 AUDIO
TITLE "Throw Away Your Stony Heart (Acoustic)"
REM REPLAYGAIN_TRACK_GAIN +8.43 dB
REM REPLAYGAIN_TRACK_PEAK 0.497687
INDEX 01 87:21:00
TRACK 16 AUDIO
TITLE "Keep Cool Babylon (Acoustic)"
REM REPLAYGAIN_TRACK_GAIN +3.93 dB
REM REPLAYGAIN_TRACK_PEAK 0.843278
INDEX 01 91:30:00
TRACK 17 AUDIO
TITLE "Stepping Razor"
REM REPLAYGAIN_TRACK_GAIN -0.71 dB
REM REPLAYGAIN_TRACK_PEAK 1.010278
INDEX 01 95:10:00
TRACK 18 AUDIO
TITLE "Creation (Acoustic)"
REM REPLAYGAIN_TRACK_GAIN +6.95 dB
REM REPLAYGAIN_TRACK_PEAK 0.989585
INDEX 01 100:50:00

Ripresa van Pelt

this is pure love.