Keep up to date with every new upload!

Join free & follow Soul Cool Records
Share
DJ Muro Diggin Free Soul

DJ Muro Diggin Free Soul

Playing tracks by

DJ Muro.

Chart positions

This upload was 1st in the #breaks chart and 1st in the #vinyl chart.

https://www.mixcloud.com/SoulCoolRecords/dj-muro-diggin-free-soul/

Japan's http://www.mixcloud.com/SoulCoolRecords/playlists/dj-muro/ is well versatile as a DJ, Producer and Rapper but the self proclaimed King of Diggin also likes to explore different genres with his legendary mixtapes/ CDs.

As usual with http://www.mixcloud.com/SoulCoolRecords/playlists/dj-muro/ and the like, their 'under the counter' mixtapes contain no detailed tracklist but is always filled with classics and bargain bin samples alongside a generous sprinkling of cratediggers delights!

If you liked this, then checkout:

https://www.mixcloud.com/SoulCoolRecords/dj-muro-get-on-your-knees-and-dig-the-cheap-bins/

https://www.mixcloud.com/SoulCoolRecords/dj-muro-70mins-of-breaks-this-time/

https://www.mixcloud.com/SoulCoolRecords/dj-muro-diggin-for-beats/

Comments

beeman [beeaudiophile]

REM GENRE Deep Soul
REM DATE 2017
REM COMMENT ExactAudioCopy v1.0b3
PERFORMER "DJ Muro"
TITLE "Diggin' Free Soul"
FILE "DJ Muro - Diggin' Free Soul.mp3" MP3
TRACK 1 AUDIO
TITLE " Hang On In There"
PERFORMER "Mike James Kirkland"
INDEX 01 00:00:00
TRACK 2 AUDIO
TITLE " Elevate Our Minds"
PERFORMER "Linda Williams"
INDEX 01 04:00:00
TRACK 3 AUDIO
TITLE "We Gettin' Down"
PERFORMER "Weldon Irvine"
INDEX 01 08:08:00
TRACK 4 AUDIO
TITLE "Feel Good To Ya"
PERFORMER "The Lewis Connection"
INDEX 01 13:13:00
TRACK 5 AUDIO
TITLE "Chicango (Chicago Land)"
PERFORMER "Billy Wooten"
INDEX 01 18:01:00
TRACK 6 AUDIO
TITLE "Due Consideration"
PERFORMER "Ted Coleman Band"
INDEX 01 21:07:00
TRACK 7 AUDIO
TITLE "Everybody Disco (Part One)"
PERFORMER "Timeless Legend"
INDEX 01 24:29:00
TRACK 8 AUDIO
TITLE "I Wouldn't Change A Thing"
PERFORMER "Coke Escovedo"
INDEX 01 28:26:00
TRACK 9 AUDIO
TITLE "I Just Can't Say Goodbye"
PERFORMER "Touch Of Class"
INDEX 01 31:42:00
TRACK 10 AUDIO
TITLE "What Does It Take (To Win Your Love)"
PERFORMER "Hearts Of Stone"
INDEX 01 36:34:00
TRACK 11 AUDIO
TITLE "If I Could Give You The World"
PERFORMER "Hearts Of Stone"
INDEX 01 39:25:00
TRACK 12 AUDIO
TITLE "Get A Good Feeling"
PERFORMER "Brief Encounter"
INDEX 01 43:33:00
TRACK 13 AUDIO
TITLE "Just One Moment"
PERFORMER "Brief Encounter"
INDEX 01 46:15:00
TRACK 14 AUDIO
TITLE "Sound Machine Panama"
PERFORMER "Roy Porter"
INDEX 01 49:24:00
TRACK 15 AUDIO
TITLE "Inner City Blues"
PERFORMER "Reuben Wilson"
INDEX 01 51:33:00
TRACK 16 AUDIO
TITLE "Sweet Sister Funk"
PERFORMER "Ramon Morris"
INDEX 01 55:44:00
TRACK 17 AUDIO
TITLE "No Trouble On The Mountain"
PERFORMER "Richard 'Groove' Holmes"
INDEX 01 59:43:00
TRACK 18 AUDIO
TITLE "Out On The Town Tonight"
PERFORMER "Roy Porter Sound Machine"
INDEX 01 64:55:00
TRACK 19 AUDIO
TITLE "The Silence That You Keep"
PERFORMER "Milton Wright"
INDEX 01 68:34:00
TRACK 20 AUDIO
TITLE "The Cream Is Rising To The Top"
PERFORMER "Chocolateclay"
INDEX 01 72:37:00

POEONEISM
POEONEISM

Rock On Muro!! Thank you for this selections! Incredible!

beeman [beeaudiophile]

number one in my theoneswhosavedme list

beeman [beeaudiophile]

haha, drop the first track and after 11 seconds I say "FUCKING HELL!" to my screen... Happens a lot to me with Muro:
Keep doing what you're doing Mister Muro, you beautiful human...

Giango
Giango

Absolutely, same ! :)

Pete Walker
Pete Walker

i have lost count how many times i've listened to this! Love, Love, Love!!!!!!

Nytto Dread (outta Buckshott)

Top selection king!!!
Give thanx!!!
Respect.

Demetris Reed

Dope !!!

groovinq
groovinq

Brilliant!!!

Icehouse (Theo Frank)

love the selections✊

sirikodama822

49:50