Don’t miss the next upload by OrquesMusic!

Join free & follow OrquesMusic to be the first to hear it.

Join & follow
Share
Damn good older Progressive mix (VooV night)

Damn good older Progressive mix (VooV night)

About the show

Playing tracks by

Leftfield, Rey, Yan Sinus, Perfect stranger & Morax, Rob Salmon and more.

PERFORMER "Jeffrey & Michael Ulrich"

FILE "orquesm VooV night.mp3" MP3

TITLE "storm 3000"
PERFORMER "Leftfield"
INDEX 01 00:00:00

TITLE "decibeliver"
PERFORMER "Yan Sinus"
INDEX 01 03:56:00

TITLE "twisted diffusion"
PERFORMER "Fitalic"
INDEX 01 10:11:00

TITLE "thrust in dust"
PERFORMER "Justice unlimited"
INDEX 01 16:22:00

TITLE "eye wall_bad deal"
PERFORMER "Remy and Ronald klinkenberg"
INDEX 01 20:42:00

TITLE "evox"
PERFORMER "Astrix vs Dimitri"
INDEX 01 23:24:00

TITLE "sudden comfort"
PERFORMER "Vibrasphere"
INDEX 01 27:45:00

TITLE "over my sholder_dj chus and ceballos dub"
PERFORMER "Rey"
INDEX 01 34:43:00

TITLE "diffuser"
PERFORMER "Nyquist"
INDEX 01 39:21:00

TITLE "bassmachinchen"
PERFORMER "G

Comments

OrquesMusic

Thought U like it ;-)

DJ Trap/Jaw

your best set mate.....

Heydeck
Heydeck

Good Work Mate