Keep up to date with every new upload!

Join free & follow Metaldog
Share
  • 37
  • 3 years ago
Armin Van Buuren vs Ferry Corsten - Godskitchen 2003-03-16

Armin Van Buuren vs Ferry Corsten - Godskitchen 2003-03-16

Playing tracks by

Jamnesia, Ferry Corsten Presents EON and GTR.

Comments

Mark Kelly

****
2003-03-16.Armin Van Buuren & Ferry Corsten B2B,Dublin.mp3
----
01- DJ Cor Fijneman ft. Jan Johnston - Venus [DJ Tiësto remix]
02- Solar Stone - Solarcoaster [Midway remix]
03- Aly & Fila - Eyes Of Horus [Ronski Speed mix]
04- Sundawner - Flakes
05- 3 Fingers - Frozen Feburary [Flake mix]
06- Push - Universal Nation 2003 [Push vs. Globe 2003 mix]á
07- Armin Van Buuren - Sunburn
08- Eon - Pocket Damage
09- Kid Vicious - Proceed
10- Ferry Corsten - Punk
11- Queen vs. Vangaurd - Flash [Original mix]
12- GTR - Mistral [Original mix]
13- Airwave vs. Rising Star - Sunspot [DCML remix]
14- System F vs. Armin Van Buuren - Exhale
----
TRACK 01 AUDIO
TITLE "01- DJ Cor Fijneman ft. Jan Johnston - Venus [DJ Tiësto remix]"
INDEX 01 000:00:00
TRACK 02 AUDIO
TITLE "02- Solar Stone - Solarcoaster [Midway remix]"
INDEX 01 002:05:00
TRACK 03 AUDIO
TITLE "03- Aly & Fila - Eyes Of Horus [Ronski Speed mix]"
INDEX 01 009:03:00
TRACK 04 AUDIO
TITLE "04- Sundawner - Flakes"
INDEX 01 016:37:00
TRACK 05 AUDIO
TITLE "05- 3 Fingers - Frozen Feburary [Flake mix]"
INDEX 01 021:52:00
TRACK 06 AUDIO
TITLE "06- Push - Universal Nation 2003 [Push vs. Globe 2003 mix]"
INDEX 01 026:18:00
TRACK 07 AUDIO
TITLE "07- Armin Van Buuren - Sunburn"
INDEX 01 032:13:00
TRACK 08 AUDIO
TITLE "08- Eon - Pocket Damage"
INDEX 01 038:01:00
TRACK 09 AUDIO
TITLE "09- Kid Vicious - Proceed"
INDEX 01 044:48:00á
TRACK 10 AUDIOáá
TITLE "10- Ferry Corsten - Punk"
INDEX 01 053:22:00
TRACK 11 AUDIO
TITLE "11- Queen vs. Vangaurd - Flash [Original mix]"
INDEX 01 059:15:00
TRACK 12 AUDIO
TITLE "12- GTR - Mistral [Original mix]"
INDEX 01 064:55:00
TRACK 13 AUDIO
TITLE "13- Airwave vs. Rising Star - Sunspot [DCML remix]"
INDEX 01 069:43:00
TRACK 14 AUDIO
TITLE "14- System F vs. Armin Van Buuren - Exhale"
INDEX 01 076:46:00
----